Terminator.Dark.Fate.2019.HDRip.XviD.B4ND1T69

Size 1.4 GB   26 seeders     Added 1 week ago

Terminator.Dark.Fate.2019.HDRip.XviD.B4ND1T69    Director: Tim Miller
Writers: James Cameron (story by), Charles H. Eglee (story by)
Stars: Linda Hamilton, Arnold Schwarzenegger, Mackenzie Davis
Plot/Story:
An augmented human and Sarah Connor must stop an advanced liquid Terminator, from hunting down a young girl, who's fate is critical to the human race.
General
Complete name : Terminator.Dark.Fate.2019.HDRip.XviD.B4ND1T69.avi
Format : AVI
Format/Info : Audio Video Interleave
File size : 1.38 GiB
Duration : 2 h 8 min
Overall bit rate : 1 545 kb/s
Subtitles : Yes...Hardcoded for non-English parts + file included(HI)
Video
ID : 0
Format : MPEG-4 Visual
Format profile : Advanced [email protected] Format settings, BVOP : 2
Format settings, QPel : No
Format settings, GMC : No warppoints
Format settings, Matrix : Default (H.263)
Codec ID : XVID
Codec ID/Hint : XviD
Duration  : 2 h 8 min
Bit rate : 1 404 kb/s
Width : 720 pixels
Height : 304 pixels
Display aspect ratio : 2.35:1
Frame rate : 23.976 (24000/1001) FPS
Color space : YUV
Chroma subsampling : 4:2:0
Bit depth : 8 bits
Scan type : Progressive
Compression mode : Lossy
Bits/(Pixel*Frame) : 0.268
Stream size : 1.26 GiB (91%)
Writing library : XviD 64
Audio
ID : 1
Format : MPEG Audio
Format version : Version 1
Format profile : Layer 3
Codec ID : 55
Codec ID/Hint : MP3
Duration : 2 h 8 min
Bit rate mode : Constant
Bit rate : 128 kb/s
Channel(s) : 2 channels
Sampling rate : 48.0 kHz
Compression mode : Lossy
Stream size : 117 MiB (8%)
Alignment : Aligned on interleaves
Interleave, duration : 24 ms (0.58 video frame)
Screenshots:  https://i.imgur.com/2meURE3.png
https://i.imgur.com/RB4taG2.png
https://i.imgur.com/G29aim6.png
https://i.imgur.com/YdQtczC.png
https://i.imgur.com/tp5q6wU.png
https://i.imgur.com/WWHOmod.png
https://i.imgur.com/KkkYdWx.png
https://i.imgur.com/42RuZmG.png
         Please Seed For As Long As Possible
Or At Least 1:1 Ratio...Thanks
Enjoy Peeps 

udp://tracker.coppersurfer.tk:6969/announce
udp://tracker.pirateparty.gr:6969/announce
udp://tracker.opentrackr.org:1337/announce
udp://tracker.tiny-vps.com:6969/announce
udp://open.demonii.si:1337/announce
udp://tracker.torrent.eu.org:451/announce
udp://tracker.leechers-paradise.org:6969/announce
udp://tracker.zer0day.to:1337/announce
udp://tracker.leechers-paradise.org:6969/announce
udp://coppersurfer.tk:6969/announce

4000 symbols left
Hash ec3f885f5b04991510068a38eafbeebc3bcafa93